#TITLE:Dark Chii Theme -Fuuma dialogue Mix-;
#SUBTITLE:~Magna Trick & SharterDark~;
#ARTIST:Keitaro Takanami;
#TITLETRANSLIT:;
#SUBTITLETRANSLIT:;
#ARTISTTRANSLIT:;
#CREDIT:Magna Trick;
#BANNER:Chobits - Dark Chii Theme [Fuuma Dialogue Mix].png;
#BACKGROUND:Chobits - Dark Chii Theme [Fuuma Dialogue Mix] bg.png;
#LYRICSPATH:;
#CDTITLE:MT&SD.png;
#MUSIC:Chobits - Dark Chii Theme [Fuuma Dialogue Mix].mp3;
#OFFSET:-0.838;
#SAMPLESTART:70.920;
#SAMPLELENGTH:13.600;
#SELECTABLE:YES;
#DISPLAYBPM:140.000;
#BPMS:0.000=140.000;
#STOPS:212.000=0.260
;
#BGCHANGES:;
// cache tags:
#FIRSTBEAT:0.000;
#LASTBEAT:412.000;
#SONGFILENAME:Songs/Chilean Keyboard Megapack 3/(Magna Trick & SharterDark) Dark Chii Theme -Fuuma Dialogue Mix-/Chobits - Dark Chii Theme [Fuuma Dialogue Mix].sm;
#HASMUSIC:1;
#HASBANNER:1;
#MUSICLENGTH:185.417;
// end cache tags

//---------------dance-single - ----------------
#NOTES:
     dance-single:
     :
     Challenge:
     13:
     1.000,1.000,1.000,0.448,0.979,1073.000,197.000,83.000,0.000,7.000:
1001
0000
0100
1000
0000
1000
0001
0000
0001
0100
0000
0100
0010
0000
1010
0000
,
1010
0000
0100
1000
0000
1000
0100
0000
0100
0010
0000
0010
0001
0000
0011
0000
,
0011
0000
0001
0100
0000
0100
0010
0000
0010
1000
0000
1000
0100
0000
1001
0000
,
1001
0000
0001
0100
0000
0100
0010
0000
0010
1000
0000
1000
0100
0000
0110
0000
,
0110
0000
0010
0001
0000
0001
1000
0000
1000
0010
0000
0010
0100
0000
0110
0000
,
0110
0000
0100
0001
0000
0001
0010
0000
0010
0100
0000
0100
1000
0000
1001
0000
,
1001
0000
0001
0100
0000
0100
0010
0000
0010
1000
0000
1000
0100
0000
0110
0000
,
0110
0000
0010
0001
0000
0001
0010
0000
0010
0100
0000
0100
1000
0000
1010
0000
,
1010
0000
0010
1000
0000
1000
0001
0000
0001
0010
0000
0010
0100
0000
0110
0000
,
0011
0000
0001
0100
0000
0100
0010
0000
0010
1000
0000
1000
0100
0000
1100
0000
,
1001
0000
0010
0100
0000
0100
0001
0000
0001
1000
0000
1000
0100
0000
1010
0000
,
1010
0000
0010
1000
0000
1000
0100
0000
0100
0001
0000
0001
1000
0000
1000
0000
,
0010
0000
0000
0000
0000
0000
0000
0000
0001
0000
0000
0000
0000
0000
0000
0000
1000
0000
0000
0000
0000
0000
0000
0000
0010
0000
0000
0000
0000
0000
0000
0000
0100
0000
0000
0000
0000
0000
0000
0000
0001
0000
0000
0000
0000
0000
0000
0000
1000
0000
0000
0000
0000
0000
0000
0000
0100
0000
0000
0000
0000
0000
0000
0000
0010
0000
0000
0000
0000
0000
0000
0000
0001
0000
0000
0000
0000
0000
0000
0000
0010
0000
0000
0000
0000
0000
0000
0000
0100
0000
0000
0000
0000
0000
0000
0000
1000
0000
0000
0000
0000
0000
0000
0000
0001
0000
0000
0000
0000
0000
0000
0000
0100
0000
0000
0000
0000
0000
0000
0000
0010
0000
0000
0000
0000
0000
0000
0000
1000
0000
0000
0000
0000
0000
0000
0000
0001
0000
0000
0000
0000
0000
0000
0000
0010
0000
0000
0000
0000
0000
0100
0000
0000
0000
0000
0000
1000
0000
0000
0000
0000
0000
0001
0000
0000
0000
0000
0000
0100
0000
0000
0000
0000
0000
0010
0000
0000
0000
0000
0000
1000
0000
0000
0000
0000
0000
0001
0000
0000
0000
0000
0000
,
0020
0000
1000
0030
1100
0000
0001
0000
0100
0000
0101
0000
0001
0000
0010
0000
,
2000
0000
0010
3000
0011
0000
0001
0000
0100
0000
0110
0000
0020
0000
1000
0030
,
0200
0000
1000
0300
1001
0000
0001
0000
0010
0000
0110
0000
0100
0000
2000
3002
,
0203
0000
0010
0300
1010
0000
0010
0000
1000
0000
1100
0000
0200
0000
0010
0300
,
0002
0000
0010
0003
0011
0000
0001
0000
1000
0000
1001
0000
0010
0000
0100
0000
,
0002
0000
1000
0003
1010
0000
0010
0000
0002
0000
0110
2003
0100
0000
3020
0000
,
0032
0000
0010
0003
0110
0000
0100
0000
1000
0000
1010
0000
0010
0000
0200
0302
,
2003
0000
0100
3000
0011
0000
0100
0000
1000
0000
1010
0000
0020
0000
0100
0030
,
0002
0000
1000
0003
1100
0000
0001
0000
0010
0000
0110
0000
0100
0000
1000
0000
,
0020
0000
0100
0030
1001
0000
0100
0000
0010
0000
0011
0000
0200
0000
1000
0300
,
0002
0000
0100
0003
1010
0000
0200
0302
0023
0000
1001
0030
0100
0000
1000
0000
,
0001
0000
0100
0000
1010
0100
0010
0001
1000
0010
1001
0100
0010
0001
0100
0010
,
1001
0000
0100
1000
0000
1000
0001
0000
0001
0100
0000
0100
0010
0000
0011
0000
,
1010
0000
1000
0100
0000
0100
0010
0000
0010
0001
0000
0001
0100
0000
1100
0000
,
0101
0000
0010
1000
0000
1000
0100
0000
0100
0010
0000
0010
0001
0000
0101
0000
,
1001
0000
0001
0100
0000
0100
1000
0000
1000
0001
0000
0001
0010
0000
0110
0000
,
1010
0000
1000
0100
0000
0100
0001
0000
0001
1000
0000
1000
0010
0000
0110
0000
,
0011
0000
1000
0010
0000
0010
0100
0000
0100
0010
0000
0010
0001
0000
0011
0000
,
1001
0000
0010
1000
0000
1000
0100
0000
0100
1000
0000
1000
0001
0000
0101
0000
,
1001
0000
0010
1000
0000
1000
0010
0000
1001
0100
0000
0100
0001
0000
0101
0000
,
1001
0000
0010
1000
0000
1000
0001
0000
0001
0100
0000
0100
0010
0000
1010
0000
,
1001
0000
0001
0010
0000
0010
1000
0000
1000
0010
0000
0010
1001
0000
0101
0000
,
1010
0000
1000
0100
0000
0100
0010
0000
0010
0001
0000
0001
1000
0000
0101
0000
,
1010
0000
0001
0010
0000
0010
0100
0000
1010
0100
0000
0100
0001
0000
0101
0000
,
2010
0000
0000
0100
0000
0000
0001
0000
0000
0010
0000
0000
0100
0000
0001
0000
,
0001
0000
0000
0010
0000
0000
0100
0000
0000
0010
0000
0000
0001
0000
0001
0000
,
0100
0000
0000
0010
0000
0000
0010
0000
0000
0100
0000
0000
0001
0000
0001
0000
,
0010
0000
0000
0000
0000
0000
0100
0000
0000
0000
0000
0000
3012
0000
0000
0000
0000
0000
0000
0000
0000
0000
0000
0000
0103
0010
1000
0001
0010
0100
1000
0001
,
0200
0000
0001
1300
0011
0000
1000
0000
0010
0000
1010
0100
1000
0000
0100
0000
,
0002
0000
0100
0013
1100
0000
1000
0000
0010
0000
0110
0001
0200
0000
0001
0300
,
0020
0000
0001
0130
1001
0000
1000
0000
0100
0000
0110
0001
0010
0000
0002
2003
,
3020
0000
0100
1030
0101
0000
0100
0000
0001
0000
0011
0100
0020
0000
0100
0030
,
2000
0000
0100
3010
1100
0000
1000
0000
0001
0000
1001
0010
0100
0000
0010
0000
,
2000
0000
0001
3010
0101
0000
0100
0000
2000
0000
0110
3002
0010
0000
0203
0000
,
2300
0000
0100
3001
0110
0000
0010
0000
0001
0000
0101
1000
0100
0000
0020
2030
,
3002
0000
0010
0103
1001
0000
0010
0000
0001
0000
0101
0010
0200
0000
0010
0300
,
2000
0000
0001
3100
0011
0000
1000
0000
0100
0000
0110
0001
0010
0000
0001
0000
,
0200
0000
1000
0310
1001
0000
0010
0000
0100
0000
1100
0001
0020
0000
0001
0030
,
2000
0000
0100
3010
0101
0000
0020
2030
3200
0000
1001
0310
0100
0000
0001
0000
,
1000
0000
0010
1000
0101
0000
1000
0000
0010
1000
0100
1000
0001
0100
0001
0010
,
1100
0000
0101
1000
0010
1000
0001
0010
1000
0010
0001
1000
0010
0100
0001
0000
,
0000
0000
1010
0001
0100
0001
1000
0100
0001
0100
1000
0001
0100
0010
1000
0000
,
0000
0000
0010
0100
1000
0100
0010
1000
0101
1000
0010
0100
1000
0001
0010
0000
,
0000
0000
1100
0010
0001
0010
0100
0001
0010
0001
0100
0010
0001
1000
0110
0000
,
1000
0000
0001
0100
1000
0100
0011
1000
0100
1000
0001
0100
1000
0010
0001
0000
,
0000
0000
0100
0001
0010
0001
1100
0010
0001
0010
0100
0001
0110
1000
0100
0000
,
0001
0000
1000
0010
0101
0010
1000
0100
0010
0100
1000
0010
0100
0001
1010
0000
,
0000
0000
0010
1000
0101
1000
0010
0001
1000
0001
0010
1000
0001
0100
0010
0000
,
1000
0000
0001
0010
0100
0010
0001
0100
0010
0100
0001
0010
0100
1000
0001
0000
,
1100
0000
0010
0001
1000
0001
0010
1000
0001
1000
0010
0001
1000
0100
0010
0000
,
1001
0000
0110
1000
0010
1000
0100
0010
1000
0010
0100
1000
0010
0001
0100
0000
,
0010
0000
1000
0100
0001
0100
1000
0001
0100
0001
1000
0100
0001
0010
1000
0000
,
1001
0000
0011
0100
1000
0100
0010
1000
0100
1000
0010
0100
1000
0001
0010
0000
,
1000
0000
0100
0010
0001
0010
0100
0001
1010
0001
1100
0010
0001
1000
0100
0000
,
0010
0001
1000
0001
0110
0001
1000
0100
1000
0001
0100
0001
1010
0100
0010
0101
,
1000
0000
0000
0000
0000
0000
0000
0000
0000
0000
0000
0000
0010
0000
0000
0000
0000
0000
0000
0000
0000
0000
0000
0000
0100
0000
0000
0000
0000
0000
0000
0000
0000
0000
0000
0000
0001
0000
0000
0000
0000
0000
0000
0000
0000
0000
0000
0000
1000
0000
0000
0000
0000
0000
0000
0000
0000
0000
0000
0000
0100
0000
0000
0000
0000
0000
0000
0000
0000
0000
0000
0000
0010
0000
0000
0000
0000
0000
0001
0000
0000
0000
0000
0000
1000
0000
0000
0000
0000
0000
0010
0000
0000
0000
0000
0000
0100
0000
0000
0000
0000
0000
0000
0000
0000
0000
0000
0000
0001
0000
0000
0000
0000
0000
0000
0000
0000
0000
0000
0000
1000
0000
0000
0000
0000
0000
0100
0000
0000
0000
0000
0000
0010
0000
0000
0000
0000
0000
0001
0000
0000
0000
0000
0000
0010
0000
0000
0000
0000
0000
0000
0000
0100
0000
0000
0000
0000
0000
0000
0000
1000
0000
0000
0000
0000
0000
0000
0000
0002
0000
0000
0000
0000
0000
0000
0000
0000
0000
0000
0000
0000
0000
0000
0000
0000
0000
0000
0000
0000
0000
0000
0000
,
0010
0103
1010
0000
0100
0000
1000
0000
1100
0001
0100
0000
0001
0000
0020
0000
,
0001
1030
0101
0000
0100
0000
1000
0000
1001
0010
0002
0000
0010
0003
2000
0000
,
0010
3001
0110
0000
0100
0000
0001
0000
1001
0010
1000
0000
0020
0230
2300
0000
,
0001
3100
0011
0000
0001
0000
0010
0000
1010
0001
2000
0000
0001
3000
0200
0000
,
0001
1300
0101
0000
0100
0000
0010
0000
0110
1000
0001
0000
1000
0000
0200
0000
,
0010
1300
0011
0000
0001
0000
0200
0000
1001
0320
1000
0000
0032
0000
0203
0000
,
0001
0310
1001
0000
1000
0000
0010
0000
0011
0100
0001
0000
2000
3200
0320
0000
,
1000
0031
0110
0000
1000
0000
0010
0000
0011
1000
0002
0000
1000
0003
0200
0000
,
0010
0301
1010
0000
0100
0000
0001
0000
1001
0010
1000
0000
0010
0000
0002
0000
,
0100
1003
0110
0000
1000
0000
0001
0000
0101
0010
2000
0000
0010
3000
0200
0000
,
0001
1300
0011
0000
2000
3200
0302
0000
0110
1003
0001
0000
0010
0000
0100
0000
,
1000
0100
0011
0000
0100
0000
1000
0100
0001
0010
1000
0001
1010
0101
1010
0000
,
0001
0000
1000
0000
0100
0000
0010
0000
0001
0000
0010
0100
1000
0010
0100
0000
,
1001
0000
1100
0000
0011
0000
0001
0000
1100
0000
0010
0000
0100
0001
1000
0000
,
0100
0000
0011
0000
0100
1000
0001
0100
0001
1000
0010
0100
0001
1000
0110
0000
,
0011
0000
1001
0000
1010
0000
0001
0000
1000
0010
1000
0000
0100
0000
0010
0000
,
0001
0010
1100
0000
0000
0000
0011
0000
0000
1001
0000
0000
0110
0000
1100
0000
,
0011
0000
0110
0000
1001
0000
0020
0000
0130
2000
0001
3000
2000
0000
3020
0000
,
0130
1000
0011
0000
0000
0000
1001
0000
0000
1010
0000
0000
1100
0000
0011
0000
,
0000
0110
0000
0001
1000
0010
0100
0001
1000
0100
0010
0001
0010
0100
1000
0000
,
0001
0000
1000
0000
0010
0000
0100
0000
0000
0000
0000
0000
0000
0000
0000
0000
0000
0000
0101
0000
0000
0000
0000
0000
0000
0000
0000
0011
0000
0000
0000
0000
0000
0000
0000
0000
0110
0000
0000
0000
0000
0000
1100
0000
0000
0000
0000
0000
,
0010
0000
1000
0000
0001
0000
0101
0000
0000
0011
0000
0000
1100
0000
1010
0000
,
0001
0000
0100
0000
1000
0100
0011
0000
0001
0000
1000
0000
0010
0000
0100
0000
,
0001
0000
0001
0000
0001
0000
0001
1000
0001
1000
0001
0010
0001
0100
1001
0000
,
0100
1000
0000
1000
0001
0000
0001
0100
0000
0100
0010
0000
1010
0000
0011
0000
,
0100
1000
0000
1000
0100
0000
0100
0010
0000
0010
0001
0000
0011
0000
1100
0000
,
0001
0100
0000
0100
0010
0000
0010
1000
0000
1000
0100
0000
1001
0000
0110
0000
,
0001
0100
0000
0100
0010
0000
0010
1000
0000
1000
0100
0000
0110
0000
1001
0000
,
0010
0001
0000
0001
1000
0000
1000
0010
0000
0010
0100
0000
0110
0000
1001
0000
,
0100
0001
0000
0001
0010
0000
0010
0100
0000
0100
1000
0000
1001
0000
0110
0000
,
0001
0100
0000
0100
0010
0000
0010
1000
0000
1000
0100
0000
0110
0000
0110
0000
,
0010
0001
0000
0001
0010
0000
0011
0100
0000
0100
1000
0000
0110
0000
2002
0000
,
0000
0000
0000
0000
,
0000
0000
0000
0000
,
3003
0000
0000
0000
;
